  0
SECTION
  2
HEADER
  9
$ACADVER
  1
AC1014
  9
$ACADMAINTVER
 70
     9
  9
$DWGCODEPAGE
  3
ANSI_1252
  9
$INSBASE
 10
0.0
 20
0.0
 30
0.0
  9
$EXTMIN
 10
-16.6711092835355
 20
-2.147361235164225
 30
0.0
  9
$EXTMAX
 10
247.3004446391544
 20
123.7866848732116
 30
0.0
  9
$LIMMIN
 10
0.0
 20
0.0
  9
$LIMMAX
 10
12.0
 20
9.0
  9
$ORTHOMODE
 70
     0
  9
$REGENMODE
 70
     1
  9
$FILLMODE
 70
     1
  9
$QTEXTMODE
 70
     0
  9
$MIRRTEXT
 70
     1
  9
$DRAGMODE
 70
     2
  9
$LTSCALE
 40
1.0
  9
$OSMODE
 70
    37
  9
$ATTMODE
 70
     1
  9
$TEXTSIZE
 40
0.2
  9
$TRACEWID
 40
0.05
  9
$TEXTSTYLE
  7
STANDARD
  9
$CLAYER
  8
0
  9
$CELTYPE
  6
BYLAYER
  9
$CECOLOR
 62
   256
  9
$CELTSCALE
 40
1.0
  9
$DELOBJ
 70
     1
  9
$DISPSILH
 70
     0
  9
$DIMSCALE
 40
1.0
  9
$DIMASZ
 40
0.18
  9
$DIMEXO
 40
0.0625
  9
$DIMDLI
 40
0.38
  9
$DIMRND
 40
0.0
  9
$DIMDLE
 40
0.0
  9
$DIMEXE
 40
0.18
  9
$DIMTP
 40
0.0
  9
$DIMTM
 40
0.0
  9
$DIMTXT
 40
1.0
  9
$DIMCEN
 40
0.09
  9
$DIMTSZ
 40
0.0
  9
$DIMTOL
 70
     0
  9
$DIMLIM
 70
     0
  9
$DIMTIH
 70
     1
  9
$DIMTOH
 70
     1
  9
$DIMSE1
 70
     0
  9
$DIMSE2
 70
     0
  9
$DIMTAD
 70
     0
  9
$DIMZIN
 70
     0
  9
$DIMBLK
  1

  9
$DIMASO
 70
     1
  9
$DIMSHO
 70
     1
  9
$DIMPOST
  1

  9
$DIMAPOST
  1

  9
$DIMALT
 70
     0
  9
$DIMALTD
 70
     2
  9
$DIMALTF
 40
25.4
  9
$DIMLFAC
 40
1.0
  9
$DIMTOFL
 70
     0
  9
$DIMTVP
 40
0.0
  9
$DIMTIX
 70
     0
  9
$DIMSOXD
 70
     0
  9
$DIMSAH
 70
     0
  9
$DIMBLK1
  1

  9
$DIMBLK2
  1

  9
$DIMSTYLE
  2
STANDARD
  9
$DIMCLRD
 70
     0
  9
$DIMCLRE
 70
     0
  9
$DIMCLRT
 70
     0
  9
$DIMTFAC
 40
1.0
  9
$DIMGAP
 40
0.09
  9
$DIMJUST
 70
     0
  9
$DIMSD1
 70
     0
  9
$DIMSD2
 70
     0
  9
$DIMTOLJ
 70
     1
  9
$DIMTZIN
 70
     0
  9
$DIMALTZ
 70
     0
  9
$DIMALTTZ
 70
     0
  9
$DIMFIT
 70
     3
  9
$DIMUPT
 70
     0
  9
$DIMUNIT
 70
     2
  9
$DIMDEC
 70
     1
  9
$DIMTDEC
 70
     1
  9
$DIMALTU
 70
     2
  9
$DIMALTTD
 70
     2
  9
$DIMTXSTY
  7
STANDARD
  9
$DIMAUNIT
 70
     0
  9
$LUNITS
 70
     2
  9
$LUPREC
 70
     4
  9
$SKETCHINC
 40
0.1
  9
$FILLETRAD
 40
0.5
  9
$AUNITS
 70
     0
  9
$AUPREC
 70
     0
  9
$MENU
  1
.
  9
$ELEVATION
 40
0.0
  9
$PELEVATION
 40
0.0
  9
$THICKNESS
 40
0.0
  9
$LIMCHECK
 70
     0
  9
$BLIPMODE
 70
     0
  9
$CHAMFERA
 40
0.5
  9
$CHAMFERB
 40
0.5
  9
$CHAMFERC
 40
1.0
  9
$CHAMFERD
 40
0.0
  9
$SKPOLY
 70
     0
  9
$TDCREATE
 40
2457585.620854838
  9
$TDUPDATE
 40
2457590.412997245
  9
$TDINDWG
 40
0.0229730671
  9
$TDUSRTIMER
 40
0.0229729514
  9
$USRTIMER
 70
     1
  9
$ANGBASE
 50
0.0
  9
$ANGDIR
 70
     0
  9
$PDMODE
 70
     0
  9
$PDSIZE
 40
0.0
  9
$PLINEWID
 40
0.0
  9
$COORDS
 70
     2
  9
$SPLFRAME
 70
     0
  9
$SPLINETYPE
 70
     6
  9
$SPLINESEGS
 70
     8
  9
$ATTDIA
 70
     0
  9
$ATTREQ
 70
     1
  9
$HANDLING
 70
  4097
  9
$HANDSEED
  5
1EB
  9
$SURFTAB1
 70
     6
  9
$SURFTAB2
 70
     6
  9
$SURFTYPE
 70
     6
  9
$SURFU
 70
     6
  9
$SURFV
 70
     6
  9
$UCSNAME
  2

  9
$UCSORG
 10
0.0
 20
0.0
 30
0.0
  9
$UCSXDIR
 10
1.0
 20
0.0
 30
0.0
  9
$UCSYDIR
 10
0.0
 20
1.0
 30
0.0
  9
$PUCSNAME
  2

  9
$PUCSORG
 10
0.0
 20
0.0
 30
0.0
  9
$PUCSXDIR
 10
1.0
 20
0.0
 30
0.0
  9
$PUCSYDIR
 10
0.0
 20
1.0
 30
0.0
  9
$USERI1
 70
     0
  9
$USERI2
 70
     0
  9
$USERI3
 70
     0
  9
$USERI4
 70
     0
  9
$USERI5
 70
     0
  9
$USERR1
 40
0.0
  9
$USERR2
 40
0.0
  9
$USERR3
 40
0.0
  9
$USERR4
 40
0.0
  9
$USERR5
 40
0.0
  9
$WORLDVIEW
 70
     1
  9
$SHADEDGE
 70
     3
  9
$SHADEDIF
 70
    70
  9
$TILEMODE
 70
     1
  9
$MAXACTVP
 70
    64
  9
$PINSBASE
 10
0.0
 20
0.0
 30
0.0
  9
$PLIMCHECK
 70
     0
  9
$PEXTMIN
 10
1.000000000000000E+20
 20
1.000000000000000E+20
 30
1.000000000000000E+20
  9
$PEXTMAX
 10
-1.000000000000000E+20
 20
-1.000000000000000E+20
 30
-1.000000000000000E+20
  9
$PLIMMIN
 10
0.0
 20
0.0
  9
$PLIMMAX
 10
12.0
 20
9.0
  9
$UNITMODE
 70
     0
  9
$VISRETAIN
 70
     1
  9
$PLINEGEN
 70
     0
  9
$PSLTSCALE
 70
     1
  9
$TREEDEPTH
 70
  3020
  9
$PICKSTYLE
 70
     1
  9
$CMLSTYLE
  2
STANDARD
  9
$CMLJUST
 70
     0
  9
$CMLSCALE
 40
1.0
  9
$PROXYGRAPHICS
 70
     1
  9
$MEASUREMENT
 70
     0
  0
ENDSEC
  0
SECTION
  2
CLASSES
  0
CLASS
  1
ACDBDICTIONARYWDFLT
  2
AcDbDictionaryWithDefault
  3
AutoCAD 2000
 90
        0
280
     0
281
     0
  0
CLASS
  1
ACDBPLACEHOLDER
  2
AcDbPlaceHolder
  3
AutoCAD 2000
 90
        0
280
     0
281
     0
  0
CLASS
  1
LAYOUT
  2
AcDbLayout
  3
AutoCAD 2000
 90
        0
280
     0
281
     0
  0
CLASS
  1
DICTIONARYVAR
  2
AcDbDictionaryVar
  3
AutoCAD 2000
 90
        0
280
     0
281
     0
  0
CLASS
  1
LONG_TRANSACTION
  2
AcDbLongTransaction
  3
AutoCAD 2000
 90
        0
280
     0
281
     0
  0
CLASS
  1
LWPOLYLINE
  2
AcDbPolyline
  3
AutoCAD 2000
 90
        0
280
     0
281
     1
  0
CLASS
  1
HATCH
  2
AcDbHatch
  3
AutoCAD 2000
 90
        0
280
     0
281
     1
  0
CLASS
  1
XRECORD
  2
AcDbXrecord
  3
AutoCAD 2000
 90
        0
280
     0
281
     0
  0
ENDSEC
  0
SECTION
  2
TABLES
  0
TABLE
  2
VPORT
  5
8
330
0
100
AcDbSymbolTable
 70
     5
  0
VPORT
  5
1C4
330
8
100
AcDbSymbolTableRecord
100
AcDbViewportTableRecord
  2
*ACTIVE
 70
     0
 10
0.0
 20
0.0
 11
1.0
 21
1.0
 12
106.34495805529
 22
50.41793414615852
 13
0.0
 23
0.0
 14
0.5
 24
0.5
 15
0.5
 25
0.5
 16
0.0
 26
0.0
 36
1.0
 17
0.0
 27
0.0
 37
0.0
 40
171.8757822843012
 41
1.695550351288056
 42
50.0
 43
0.0
 44
0.0
 50
0.0
 51
0.0
 71
     0
 72
   100
 73
     1
 74
     3
 75
     0
 76
     0
 77
     0
 78
     0
  0
ENDTAB
  0
TABLE
  2
LTYPE
  5
5
330
0
100
AcDbSymbolTable
 70
     1
  0
LTYPE
  5
14
330
5
100
AcDbSymbolTableRecord
100
AcDbLinetypeTableRecord
  2
BYBLOCK
 70
     0
  3

 72
    65
 73
     0
 40
0.0
  0
LTYPE
  5
15
330
5
100
AcDbSymbolTableRecord
100
AcDbLinetypeTableRecord
  2
BYLAYER
 70
     0
  3

 72
    65
 73
     0
 40
0.0
  0
LTYPE
  5
16
330
5
100
AcDbSymbolTableRecord
100
AcDbLinetypeTableRecord
  2
CONTINUOUS
 70
     0
  3
Solid line
 72
    65
 73
     0
 40
0.0
  0
ENDTAB
  0
TABLE
  2
LAYER
  5
2
330
0
100
AcDbSymbolTable
 70
     2
  0
LAYER
  5
10
330
2
100
AcDbSymbolTableRecord
100
AcDbLayerTableRecord
  2
0
 70
     0
 62
     7
  6
CONTINUOUS
  0
LAYER
  5
57
330
2
100
AcDbSymbolTableRecord
100
AcDbLayerTableRecord
  2
DEFPOINTS
 70
     0
 62
     7
  6
CONTINUOUS
  0
ENDTAB
  0
TABLE
  2
STYLE
  5
3
330
0
100
AcDbSymbolTable
 70
     1
  0
STYLE
  5
11
330
3
100
AcDbSymbolTableRecord
100
AcDbTextStyleTableRecord
  2
STANDARD
 70
     0
 40
0.0
 41
1.0
 50
0.0
 71
     0
 42
0.2
  3
txt
  4

  0
ENDTAB
  0
TABLE
  2
VIEW
  5
6
330
0
100
AcDbSymbolTable
 70
     0
  0
ENDTAB
  0
TABLE
  2
UCS
  5
7
330
0
100
AcDbSymbolTable
 70
     0
  0
ENDTAB
  0
TABLE
  2
APPID
  5
9
330
0
100
AcDbSymbolTable
 70
     1
  0
APPID
  5
12
330
9
100
AcDbSymbolTableRecord
100
AcDbRegAppTableRecord
  2
ACAD
 70
     0
  0
ENDTAB
  0
TABLE
  2
DIMSTYLE
  5
A
330
0
100
AcDbSymbolTable
 70
     1
  0
DIMSTYLE
105
27
102
{ACAD_REACTORS
330
D2
330
E0
330
EE
330
18C
330
19A
330
1A8
102
}
330
A
100
AcDbSymbolTableRecord
100
AcDbDimStyleTableRecord
  2
STANDARD
 70
     0
  3

  4

  5

  6

  7

 40
1.0
 41
0.18
 42
0.0625
 43
0.38
 44
0.18
 45
0.0
 46
0.0
 47
0.0
 48
0.0
140
1.0
141
0.09
142
0.0
143
25.4
144
1.0
145
0.0
146
1.0
147
0.09
 71
     0
 72
     0
 73
     1
 74
     1
 75
     0
 76
     0
 77
     0
 78
     0
170
     0
171
     2
172
     0
173
     0
174
     0
175
     0
176
     0
177
     0
178
     0
270
     2
271
     1
272
     1
273
     2
274
     2
340
11
275
     0
280
     0
281
     0
282
     0
283
     1
284
     0
285
     0
286
     0
287
     3
288
     0
  0
ENDTAB
  0
TABLE
  2
BLOCK_RECORD
  5
1
330
0
100
AcDbSymbolTable
 70
    11
  0
BLOCK_RECORD
  5
1F
102
{ACAD_XDICTIONARY
360
1E7
102
}
330
1
100
AcDbSymbolTableRecord
100
AcDbBlockTableRecord
  2
*MODEL_SPACE
  0
BLOCK_RECORD
  5
1B
102
{ACAD_XDICTIONARY
360
1E5
102
}
330
1
100
AcDbSymbolTableRecord
100
AcDbBlockTableRecord
  2
*PAPER_SPACE
  0
BLOCK_RECORD
  5
D3
330
1
100
AcDbSymbolTableRecord
100
AcDbBlockTableRecord
  2
*D1
  0
BLOCK_RECORD
  5
E1
330
1
100
AcDbSymbolTableRecord
100
AcDbBlockTableRecord
  2
*D2
  0
BLOCK_RECORD
  5
EF
330
1
100
AcDbSymbolTableRecord
100
AcDbBlockTableRecord
  2
*D3
  0
BLOCK_RECORD
  5
18D
330
1
100
AcDbSymbolTableRecord
100
AcDbBlockTableRecord
  2
*D7
  0
BLOCK_RECORD
  5
19B
330
1
100
AcDbSymbolTableRecord
100
AcDbBlockTableRecord
  2
*D8
  0
BLOCK_RECORD
  5
1A9
330
1
100
AcDbSymbolTableRecord
100
AcDbBlockTableRecord
  2
*D9
  0
ENDTAB
  0
ENDSEC
  0
SECTION
  2
BLOCKS
  0
BLOCK
  5
20
330
1F
100
AcDbEntity
  8
0
100
AcDbBlockBegin
  2
*MODEL_SPACE
 70
     0
 10
0.0
 20
0.0
 30
0.0
  3
*MODEL_SPACE
  1

  0
ENDBLK
  5
21
330
1F
100
AcDbEntity
  8
0
100
AcDbBlockEnd
  0
BLOCK
  5
1C
330
1B
100
AcDbEntity
 67
     1
  8
0
100
AcDbBlockBegin
  2
*PAPER_SPACE
 70
     0
 10
0.0
 20
0.0
 30
0.0
  3
*PAPER_SPACE
  1

  0
ENDBLK
  5
1D
330
1B
100
AcDbEntity
 67
     1
  8
0
100
AcDbBlockEnd
  0
BLOCK
  5
DE
330
D3
100
AcDbEntity
  8
0
100
AcDbBlockBegin
  2
*D1
 70
     1
 10
0.0
 20
0.0
 30
0.0
  3
*D1
  1

  0
LINE
  5
11A
330
D3
100
AcDbEntity
  8
0
 62
     0
100
AcDbLine
 10
8.328890716464499
 20
40.03051959367813
 30
0.0
 11
8.328890716464499
 21
42.05739533275001
 31
0.0
  0
LINE
  5
11B
330
D3
100
AcDbEntity
  8
0
 62
     0
100
AcDbLine
 10
18.3288907164645
 20
40.03051959367813
 30
0.0
 11
18.3288907164645
 21
42.05739533275001
 31
0.0
  0
LINE
  5
11C
330
D3
100
AcDbEntity
  8
0
 62
     0
100
AcDbLine
 10
8.508890716464499
 20
41.87739533275001
 30
0.0
 11
12.07222404979783
 21
41.87739533275001
 31
0.0
  0
LINE
  5
11D
330
D3
100
AcDbEntity
  8
0
 62
     0
100
AcDbLine
 10
18.14889071646449
 20
41.87739533275001
 30
0.0
 11
14.58555738313116
 21
41.87739533275001
 31
0.0
  0
SOLID
  5
11E
330
D3
100
AcDbEntity
  8
0
 62
     0
100
AcDbTrace
 10
8.508890716464499
 20
41.90739533275001
 30
0.0
 11
8.508890716464499
 21
41.84739533275001
 31
0.0
 12
8.328890716464499
 22
41.87739533275001
 32
0.0
 13
8.328890716464499
 23
41.87739533275001
 33
0.0
  0
SOLID
  5
11F
330
D3
100
AcDbEntity
  8
0
 62
     0
100
AcDbTrace
 10
18.14889071646449
 20
41.90739533275001
 30
0.0
 11
18.14889071646449
 21
41.84739533275001
 31
0.0
 12
18.3288907164645
 22
41.87739533275001
 32
0.0
 13
18.3288907164645
 23
41.87739533275001
 33
0.0
  0
MTEXT
  5
120
330
D3
100
AcDbEntity
  8
0
 62
     0
100
AcDbMText
 10
13.3288907164645
 20
41.87739533275001
 30
0.0
 40
1.0
 41
0.0
 71
     5
 72
     1
  1
\A1;10.0
1001
ACAD
1000
MTEXTBEGIN
1070
    73
1070
     1
1070
    44
1040
1.0
1070
    74
1070
     0
1000
MTEXTEND
  0
POINT
  5
121
330
D3
100
AcDbEntity
  8
DEFPOINTS
 62
     0
100
AcDbPoint
 10
8.328890716464499
 20
39.96801959367813
 30
0.0
  0
POINT
  5
122
330
D3
100
AcDbEntity
  8
DEFPOINTS
 62
     0
100
AcDbPoint
 10
18.3288907164645
 20
39.96801959367813
 30
0.0
  0
POINT
  5
123
330
D3
100
AcDbEntity
  8
DEFPOINTS
 62
     0
100
AcDbPoint
 10
18.3288907164645
 20
41.87739533275001
 30
0.0
  0
ENDBLK
  5
DF
330
D3
100
AcDbEntity
  8
0
100
AcDbBlockEnd
  0
BLOCK
  5
EC
330
E1
100
AcDbEntity
  8
0
100
AcDbBlockBegin
  2
*D2
 70
     1
 10
0.0
 20
0.0
 30
0.0
  3
*D2
  1

  0
LINE
  5
124
330
E1
100
AcDbEntity
  8
0
 62
     0
100
AcDbLine
 10
8.391390716464499
 20
39.96801959367813
 30
0.0
 11
18.48665441156758
 21
39.96801959367813
 31
0.0
  0
LINE
  5
125
330
E1
100
AcDbEntity
  8
0
 62
     0
100
AcDbLine
 10
-16.6086092835355
 20
4.968019593678135
 30
0.0
 11
18.48665441156757
 21
4.968019593678126
 31
0.0
  0
LINE
  5
126
330
E1
100
AcDbEntity
  8
0
 62
     0
100
AcDbLine
 10
18.30665441156758
 20
39.78801959367812
 30
0.0
 11
18.30665441156758
 21
23.05801959367812
 31
0.0
  0
LINE
  5
127
330
E1
100
AcDbEntity
  8
0
 62
     0
100
AcDbLine
 10
18.30665441156757
 20
5.148019593678125
 30
0.0
 11
18.30665441156758
 21
21.87801959367813
 31
0.0
  0
SOLID
  5
128
330
E1
100
AcDbEntity
  8
0
 62
     0
100
AcDbTrace
 10
18.27665441156758
 20
39.78801959367812
 30
0.0
 11
18.33665441156758
 21
39.78801959367812
 31
0.0
 12
18.30665441156758
 22
39.96801959367813
 32
0.0
 13
18.30665441156758
 23
39.96801959367813
 33
0.0
  0
SOLID
  5
129
330
E1
100
AcDbEntity
  8
0
 62
     0
100
AcDbTrace
 10
18.27665441156757
 20
5.148019593678125
 30
0.0
 11
18.33665441156758
 21
5.148019593678125
 31
0.0
 12
18.30665441156757
 22
4.968019593678126
 32
0.0
 13
18.30665441156757
 23
4.968019593678126
 33
0.0
  0
MTEXT
  5
12A
330
E1
100
AcDbEntity
  8
0
 62
     0
100
AcDbMText
 10
18.30665441156757
 20
22.46801959367813
 30
0.0
 40
1.0
 41
0.0
 71
     5
 72
     1
  1
\A1;35.0
1001
ACAD
1000
MTEXTBEGIN
1070
    73
1070
     1
1070
    44
1040
1.0
1070
    74
1070
     0
1000
MTEXTEND
  0
POINT
  5
12B
330
E1
100
AcDbEntity
  8
DEFPOINTS
 62
     0
100
AcDbPoint
 10
8.328890716464499
 20
39.96801959367813
 30
0.0
  0
POINT
  5
12C
330
E1
100
AcDbEntity
  8
DEFPOINTS
 62
     0
100
AcDbPoint
 10
-16.6711092835355
 20
4.968019593678135
 30
0.0
  0
POINT
  5
12D
330
E1
100
AcDbEntity
  8
DEFPOINTS
 62
     0
100
AcDbPoint
 10
18.30665441156757
 20
4.968019593678126
 30
0.0
  0
ENDBLK
  5
ED
330
E1
100
AcDbEntity
  8
0
100
AcDbBlockEnd
  0
BLOCK
  5
FA
330
EF
100
AcDbEntity
  8
0
100
AcDbBlockBegin
  2
*D3
 70
     1
 10
0.0
 20
0.0
 30
0.0
  3
*D3
  1

  0
LINE
  5
12E
330
EF
100
AcDbEntity
  8
0
 62
     0
100
AcDbLine
 10
43.3288907164645
 20
4.905519593678139
 30
0.0
 11
43.3288907164645
 21
3.099590435775755
 31
0.0
  0
LINE
  5
12F
330
EF
100
AcDbEntity
  8
0
 62
     0
100
AcDbLine
 10
-16.6711092835355
 20
4.905519593678139
 30
0.0
 11
-16.6711092835355
 21
3.099590435775755
 31
0.0
  0
LINE
  5
130
330
EF
100
AcDbEntity
  8
0
 62
     0
100
AcDbLine
 10
43.1488907164645
 20
3.279590435775755
 30
0.0
 11
14.75222404979783
 21
3.279590435775755
 31
0.0
  0
LINE
  5
131
330
EF
100
AcDbEntity
  8
0
 62
     0
100
AcDbLine
 10
-16.4911092835355
 20
3.279590435775755
 30
0.0
 11
11.90555738313116
 21
3.279590435775755
 31
0.0
  0
SOLID
  5
132
330
EF
100
AcDbEntity
  8
0
 62
     0
100
AcDbTrace
 10
43.1488907164645
 20
3.309590435775755
 30
0.0
 11
43.1488907164645
 21
3.249590435775755
 31
0.0
 12
43.3288907164645
 22
3.279590435775755
 32
0.0
 13
43.3288907164645
 23
3.279590435775755
 33
0.0
  0
SOLID
  5
133
330
EF
100
AcDbEntity
  8
0
 62
     0
100
AcDbTrace
 10
-16.4911092835355
 20
3.309590435775755
 30
0.0
 11
-16.4911092835355
 21
3.249590435775755
 31
0.0
 12
-16.6711092835355
 22
3.279590435775755
 32
0.0
 13
-16.6711092835355
 23
3.279590435775755
 33
0.0
  0
MTEXT
  5
134
330
EF
100
AcDbEntity
  8
0
 62
     0
100
AcDbMText
 10
13.3288907164645
 20
3.279590435775755
 30
0.0
 40
1.0
 41
0.0
 71
     5
 72
     1
  1
\A1;60.0
1001
ACAD
1000
MTEXTBEGIN
1070
    73
1070
     1
1070
    44
1040
1.0
1070
    74
1070
     0
1000
MTEXTEND
  0
POINT
  5
135
330
EF
100
AcDbEntity
  8
DEFPOINTS
 62
     0
100
AcDbPoint
 10
43.3288907164645
 20
4.968019593678139
 30
0.0
  0
POINT
  5
136
330
EF
100
AcDbEntity
  8
DEFPOINTS
 62
     0
100
AcDbPoint
 10
-16.6711092835355
 20
4.968019593678139
 30
0.0
  0
POINT
  5
137
330
EF
100
AcDbEntity
  8
DEFPOINTS
 62
     0
100
AcDbPoint
 10
-16.6711092835355
 20
3.279590435775755
 30
0.0
  0
ENDBLK
  5
FB
330
EF
100
AcDbEntity
  8
0
100
AcDbBlockEnd
  0
BLOCK
  5
198
330
18D
100
AcDbEntity
  8
0
100
AcDbBlockBegin
  2
*D7
 70
     1
 10
0.0
 20
0.0
 30
0.0
  3
*D7
  1

  0
LINE
  5
18E
330
18D
100
AcDbEntity
  8
0
 62
     0
100
AcDbLine
 10
67.30044463915442
 20
4.905519593678146
 30
0.0
 11
67.30044463915442
 21
-1.827361235164225
 31
0.0
  0
LINE
  5
18F
330
18D
100
AcDbEntity
  8
0
 62
     0
100
AcDbLine
 10
247.3004446391544
 20
4.905519593678146
 30
0.0
 11
247.3004446391544
 21
-1.827361235164225
 31
0.0
  0
LINE
  5
190
330
18D
100
AcDbEntity
  8
0
 62
     0
100
AcDbLine
 10
67.48044463915443
 20
-1.647361235164225
 30
0.0
 11
155.5437779724877
 21
-1.647361235164225
 31
0.0
  0
LINE
  5
191
330
18D
100
AcDbEntity
  8
0
 62
     0
100
AcDbLine
 10
247.1204446391544
 20
-1.647361235164225
 30
0.0
 11
159.057111305821
 21
-1.647361235164225
 31
0.0
  0
SOLID
  5
192
330
18D
100
AcDbEntity
  8
0
 62
     0
100
AcDbTrace
 10
67.48044463915443
 20
-1.617361235164225
 30
0.0
 11
67.48044463915443
 21
-1.677361235164226
 31
0.0
 12
67.30044463915442
 22
-1.647361235164225
 32
0.0
 13
67.30044463915442
 23
-1.647361235164225
 33
0.0
  0
SOLID
  5
193
330
18D
100
AcDbEntity
  8
0
 62
     0
100
AcDbTrace
 10
247.1204446391544
 20
-1.617361235164225
 30
0.0
 11
247.1204446391544
 21
-1.677361235164226
 31
0.0
 12
247.3004446391544
 22
-1.647361235164225
 32
0.0
 13
247.3004446391544
 23
-1.647361235164225
 33
0.0
  0
MTEXT
  5
194
330
18D
100
AcDbEntity
  8
0
 62
     0
100
AcDbMText
 10
157.3004446391544
 20
-1.647361235164225
 30
0.0
 40
1.0
 41
0.0
 71
     5
 72
     1
  1
\A1;180.0
1001
ACAD
1000
MTEXTBEGIN
1070
    73
1070
     1
1070
    44
1040
1.0
1070
    74
1070
     0
1000
MTEXTEND
  0
POINT
  5
195
330
18D
100
AcDbEntity
  8
DEFPOINTS
 62
     0
100
AcDbPoint
 10
67.30044463915442
 20
4.968019593678146
 30
0.0
  0
POINT
  5
196
330
18D
100
AcDbEntity
  8
DEFPOINTS
 62
     0
100
AcDbPoint
 10
247.3004446391544
 20
4.968019593678146
 30
0.0
  0
POINT
  5
197
330
18D
100
AcDbEntity
  8
DEFPOINTS
 62
     0
100
AcDbPoint
 10
247.3004446391544
 20
-1.647361235164225
 30
0.0
  0
ENDBLK
  5
199
330
18D
100
AcDbEntity
  8
0
100
AcDbBlockEnd
  0
BLOCK
  5
1A6
330
19B
100
AcDbEntity
  8
0
100
AcDbBlockBegin
  2
*D8
 70
     1
 10
0.0
 20
0.0
 30
0.0
  3
*D8
  1

  0
LINE
  5
19C
330
19B
100
AcDbEntity
  8
0
 62
     0
100
AcDbLine
 10
142.3004446391544
 20
110.0305195936781
 30
0.0
 11
142.3004446391544
 21
116.1318584523991
 31
0.0
  0
LINE
  5
19D
330
19B
100
AcDbEntity
  8
0
 62
     0
100
AcDbLine
 10
172.3004446391544
 20
110.0305195936781
 30
0.0
 11
172.3004446391544
 21
116.1318584523991
 31
0.0
  0
LINE
  5
19E
330
19B
100
AcDbEntity
  8
0
 62
     0
100
AcDbLine
 10
142.4804446391544
 20
115.9518584523991
 30
0.0
 11
155.877111305821
 21
115.9518584523991
 31
0.0
  0
LINE
  5
19F
330
19B
100
AcDbEntity
  8
0
 62
     0
100
AcDbLine
 10
172.1204446391544
 20
115.9518584523991
 30
0.0
 11
158.7237779724877
 21
115.9518584523991
 31
0.0
  0
SOLID
  5
1A0
330
19B
100
AcDbEntity
  8
0
 62
     0
100
AcDbTrace
 10
142.4804446391544
 20
115.9818584523991
 30
0.0
 11
142.4804446391544
 21
115.9218584523991
 31
0.0
 12
142.3004446391544
 22
115.9518584523991
 32
0.0
 13
142.3004446391544
 23
115.9518584523991
 33
0.0
  0
SOLID
  5
1A1
330
19B
100
AcDbEntity
  8
0
 62
     0
100
AcDbTrace
 10
172.1204446391544
 20
115.9818584523991
 30
0.0
 11
172.1204446391544
 21
115.9218584523991
 31
0.0
 12
172.3004446391544
 22
115.9518584523991
 32
0.0
 13
172.3004446391544
 23
115.9518584523991
 33
0.0
  0
MTEXT
  5
1A2
330
19B
100
AcDbEntity
  8
0
 62
     0
100
AcDbMText
 10
157.3004446391544
 20
115.9518584523991
 30
0.0
 40
1.0
 41
0.0
 71
     5
 72
     1
  1
\A1;30.0
1001
ACAD
1000
MTEXTBEGIN
1070
    73
1070
     1
1070
    44
1040
1.0
1070
    74
1070
     0
1000
MTEXTEND
  0
POINT
  5
1A3
330
19B
100
AcDbEntity
  8
DEFPOINTS
 62
     0
100
AcDbPoint
 10
142.3004446391544
 20
109.9680195936781
 30
0.0
  0
POINT
  5
1A4
330
19B
100
AcDbEntity
  8
DEFPOINTS
 62
     0
100
AcDbPoint
 10
172.3004446391544
 20
109.9680195936781
 30
0.0
  0
POINT
  5
1A5
330
19B
100
AcDbEntity
  8
DEFPOINTS
 62
     0
100
AcDbPoint
 10
172.3004446391544
 20
115.9518584523991
 30
0.0
  0
ENDBLK
  5
1A7
330
19B
100
AcDbEntity
  8
0
100
AcDbBlockEnd
  0
BLOCK
  5
1B4
330
1A9
100
AcDbEntity
  8
0
100
AcDbBlockBegin
  2
*D9
 70
     1
 10
0.0
 20
0.0
 30
0.0
  3
*D9
  1

  0
LINE
  5
1AA
330
1A9
100
AcDbEntity
  8
0
 62
     0
100
AcDbLine
 10
142.3629446391544
 20
109.9680195936781
 30
0.0
 11
143.1289442571067
 21
109.9680195936781
 31
0.0
  0
LINE
  5
1AB
330
1A9
100
AcDbEntity
  8
0
 62
     0
100
AcDbLine
 10
67.36294463915442
 20
4.96801959367815
 30
0.0
 11
143.1289442571067
 21
4.968019593678128
 31
0.0
  0
LINE
  5
1AC
330
1A9
100
AcDbEntity
  8
0
 62
     0
100
AcDbLine
 10
142.9489442571067
 20
109.7880195936781
 30
0.0
 11
142.9489442571067
 21
58.05801959367813
 31
0.0
  0
LINE
  5
1AD
330
1A9
100
AcDbEntity
  8
0
 62
     0
100
AcDbLine
 10
142.9489442571067
 20
5.148019593678128
 30
0.0
 11
142.9489442571067
 21
56.87801959367813
 31
0.0
  0
SOLID
  5
1AE
330
1A9
100
AcDbEntity
  8
0
 62
     0
100
AcDbTrace
 10
142.9189442571067
 20
109.7880195936781
 30
0.0
 11
142.9789442571067
 21
109.7880195936781
 31
0.0
 12
142.9489442571067
 22
109.9680195936781
 32
0.0
 13
142.9489442571067
 23
109.9680195936781
 33
0.0
  0
SOLID
  5
1AF
330
1A9
100
AcDbEntity
  8
0
 62
     0
100
AcDbTrace
 10
142.9189442571067
 20
5.148019593678128
 30
0.0
 11
142.9789442571067
 21
5.148019593678128
 31
0.0
 12
142.9489442571067
 22
4.968019593678128
 32
0.0
 13
142.9489442571067
 23
4.968019593678128
 33
0.0
  0
MTEXT
  5
1B0
330
1A9
100
AcDbEntity
  8
0
 62
     0
100
AcDbMText
 10
142.9489442571067
 20
57.46801959367815
 30
0.0
 40
1.0
 41
0.0
 71
     5
 72
     1
  1
\A1;105.0
1001
ACAD
1000
MTEXTBEGIN
1070
    73
1070
     1
1070
    44
1040
1.0
1070
    74
1070
     0
1000
MTEXTEND
  0
POINT
  5
1B1
330
1A9
100
AcDbEntity
  8
DEFPOINTS
 62
     0
100
AcDbPoint
 10
142.3004446391544
 20
109.9680195936781
 30
0.0
  0
POINT
  5
1B2
330
1A9
100
AcDbEntity
  8
DEFPOINTS
 62
     0
100
AcDbPoint
 10
67.30044463915442
 20
4.96801959367815
 30
0.0
  0
POINT
  5
1B3
330
1A9
100
AcDbEntity
  8
DEFPOINTS
 62
     0
100
AcDbPoint
 10
142.9489442571067
 20
4.968019593678128
 30
0.0
  0
ENDBLK
  5
1B5
330
1A9
100
AcDbEntity
  8
0
100
AcDbBlockEnd
  0
ENDSEC
  0
SECTION
  2
ENTITIES
  0
LINE
  5
C9
330
1F
100
AcDbEntity
  8
0
100
AcDbLine
 10
-16.6711092835355
 20
4.968019593678139
 30
0.0
 11
43.3288907164645
 21
4.968019593678139
 31
0.0
  0
LINE
  5
CA
330
1F
100
AcDbEntity
  8
0
100
AcDbLine
 10
8.328890716464499
 20
39.96801959367813
 30
0.0
 11
18.3288907164645
 21
39.96801959367813
 31
0.0
  0
LINE
  5
D0
330
1F
100
AcDbEntity
  8
0
100
AcDbLine
 10
8.328890716464499
 20
39.96801959367813
 30
0.0
 11
-16.6711092835355
 21
4.968019593678139
 31
0.0
  0
LINE
  5
D1
330
1F
100
AcDbEntity
  8
0
100
AcDbLine
 10
18.3288907164645
 20
39.96801959367813
 30
0.0
 11
43.3288907164645
 21
4.968019593678139
 31
0.0
  0
DIMENSION
  5
D2
330
1F
100
AcDbEntity
  8
0
100
AcDbDimension
  2
*D1
 10
18.3288907164645
 20
41.87739533275001
 30
0.0
 11
13.3288907164645
 21
41.87739533275001
 31
0.0
 70
    32
  3
STANDARD
100
AcDbAlignedDimension
 13
8.328890716464499
 23
39.96801959367813
 33
0.0
 14
18.3288907164645
 24
39.96801959367813
 34
0.0
100
AcDbRotatedDimension
  0
DIMENSION
  5
E0
330
1F
100
AcDbEntity
  8
0
100
AcDbDimension
  2
*D2
 10
18.30665441156757
 20
4.968019593678126
 30
0.0
 11
18.30665441156757
 21
22.46801959367813
 31
0.0
 70
    32
  3
STANDARD
100
AcDbAlignedDimension
 13
8.328890716464499
 23
39.96801959367813
 33
0.0
 14
-16.6711092835355
 24
4.968019593678135
 34
0.0
 50
90.0
100
AcDbRotatedDimension
  0
DIMENSION
  5
EE
330
1F
100
AcDbEntity
  8
0
100
AcDbDimension
  2
*D3
 10
-16.6711092835355
 20
3.279590435775755
 30
0.0
 11
13.3288907164645
 21
3.279590435775755
 31
0.0
 70
    32
  3
STANDARD
100
AcDbAlignedDimension
 13
43.3288907164645
 23
4.968019593678139
 33
0.0
 14
-16.6711092835355
 24
4.968019593678139
 34
0.0
100
AcDbRotatedDimension
  0
LINE
  5
143
330
1F
100
AcDbEntity
  8
0
100
AcDbLine
 10
142.3004446391544
 20
109.9680195936781
 30
0.0
 11
172.3004446391544
 21
109.9680195936781
 31
0.0
  0
LINE
  5
144
330
1F
100
AcDbEntity
  8
0
100
AcDbLine
 10
67.30044463915442
 20
4.968019593678146
 30
0.0
 11
247.3004446391544
 21
4.968019593678146
 31
0.0
  0
LINE
  5
145
330
1F
100
AcDbEntity
  8
0
100
AcDbLine
 10
142.3004446391544
 20
109.9680195936781
 30
0.0
 11
67.30044463915442
 21
4.968019593678146
 31
0.0
  0
LINE
  5
146
330
1F
100
AcDbEntity
  8
0
100
AcDbLine
 10
172.3004446391544
 20
109.9680195936781
 30
0.0
 11
247.3004446391544
 21
4.968019593678146
 31
0.0
  0
DIMENSION
  5
18C
330
1F
100
AcDbEntity
  8
0
100
AcDbDimension
  2
*D7
 10
247.3004446391544
 20
-1.647361235164225
 30
0.0
 11
157.3004446391544
 21
-1.647361235164225
 31
0.0
 70
    32
  3
STANDARD
100
AcDbAlignedDimension
 13
67.30044463915442
 23
4.968019593678146
 33
0.0
 14
247.3004446391544
 24
4.968019593678146
 34
0.0
100
AcDbRotatedDimension
  0
DIMENSION
  5
19A
330
1F
100
AcDbEntity
  8
0
100
AcDbDimension
  2
*D8
 10
172.3004446391544
 20
115.9518584523991
 30
0.0
 11
157.3004446391544
 21
115.9518584523991
 31
0.0
 70
    32
  3
STANDARD
100
AcDbAlignedDimension
 13
142.3004446391544
 23
109.9680195936781
 33
0.0
 14
172.3004446391544
 24
109.9680195936781
 34
0.0
100
AcDbRotatedDimension
  0
DIMENSION
  5
1A8
330
1F
100
AcDbEntity
  8
0
100
AcDbDimension
  2
*D9
 10
142.9489442571067
 20
4.968019593678128
 30
0.0
 11
142.9489442571067
 21
57.46801959367815
 31
0.0
 70
    32
  3
STANDARD
100
AcDbAlignedDimension
 13
142.3004446391544
 23
109.9680195936781
 33
0.0
 14
67.30044463915442
 24
4.96801959367815
 34
0.0
 50
90.0
100
AcDbRotatedDimension
  0
MTEXT
  5
1BA
330
1F
100
AcDbEntity
  8
0
100
AcDbMText
 10
7.594643541493269
 20
52.42817719064294
 30
0.0
 40
1.0
 41
73.4091
 71
     1
 72
     5
  1
demensions in mm
1001
ACAD
1000
MTEXTBEGIN
1070
    73
1070
     1
1070
    44
1040
1.0
1070
    74
1070
     0
1000
MTEXTEND
  0
MTEXT
  5
1C2
330
1F
100
AcDbEntity
  8
0
100
AcDbMText
 10
144.7590312745961
 20
123.7866848732115
 30
0.0
 40
1.0
 41
73.4091
 71
     1
 72
     5
  1
demensions in mm
1001
ACAD
1000
MTEXTBEGIN
1070
    73
1070
     1
1070
    44
1040
1.0
1070
    74
1070
     0
1000
MTEXTEND
  0
ENDSEC
  0
SECTION
  2
OBJECTS
  0
DICTIONARY
  5
C
330
0
100
AcDbDictionary
  3
ACAD_GROUP
350
D
  3
ACAD_LAYOUT
350
1A
  3
ACAD_MLINESTYLE
350
17
  3
ACAD_PLOTSETTINGS
350
19
  3
ACAD_PLOTSTYLENAME
350
E
  3
ACDBVARIABLEDICTIONARY
350
C7
  3
ACDBHEADERROUNDTRIPXREC
350
1C5
  0
DICTIONARY
  5
1E7
330
1F
100
AcDbDictionary
280
     1
  3
ACAD_LAYOUTSELFREF
360
1E8
  0
DICTIONARY
  5
1E5
330
1B
100
AcDbDictionary
280
     1
  3
ACAD_LAYOUTSELFREF
360
1E6
  0
DICTIONARY
  5
D
102
{ACAD_REACTORS
330
C
102
}
330
C
100
AcDbDictionary
  0
DICTIONARY
  5
1A
102
{ACAD_REACTORS
330
C
102
}
330
C
100
AcDbDictionary
  0
DICTIONARY
  5
17
102
{ACAD_REACTORS
330
C
102
}
330
C
100
AcDbDictionary
  3
STANDARD
350
18
  0
DICTIONARY
  5
19
102
{ACAD_REACTORS
330
C
102
}
330
C
100
AcDbDictionary
  0
ACDBDICTIONARYWDFLT
  5
E
102
{ACAD_REACTORS
330
C
102
}
330
C
100
AcDbDictionary
281
     1
  3
Normal
350
F
100
AcDbDictionaryWithDefault
340
F
  0
DICTIONARY
  5
C7
102
{ACAD_REACTORS
330
C
102
}
330
C
100
AcDbDictionary
  3
SORTENTS
350
C8
  0
DICTIONARY
  5
1C5
102
{ACAD_REACTORS
330
C
102
}
330
C
100
AcDbDictionary
  3
TSTACKALIGN
350
1C6
  3
TSTACKSIZE
350
1C7
  3
HYPERLINKBASE
350
1C8
  3
STYLESHEET
350
1C9
  3
LAYOUTDICT
350
1CA
  3
PLOTSETDICT
350
1CB
  3
PLOTSTYLNAMDICT
350
1CC
  3
LWETCUNION
350
1CD
  3
INSUNITS
350
1CE
  3
CEPSNTYPE
350
1CF
  3
FINGERPRINTGUID
350
1D0
  3
VERSIONGUID
350
1D1
  3
PSVPSCALE
350
1D2
  3
PUCSORTHOREF
350
1D3
  3
PUCSORTHOVIEW
350
1D4
  3
PUCSBASE
350
1D5
  3
PUCSORGTOP
350
1D6
  3
PUCSORGBOTTOM
350
1D7
  3
PUCSORGLEFT
350
1D8
  3
PUCSORGRIGHT
350
1D9
  3
PUCSORGFRONT
350
1DA
  3
PUCSORGBACK
350
1DB
  3
UCSORTHOREF
350
1DC
  3
UCSORTHOVIEW
350
1DD
  3
UCSBASE
350
1DE
  3
UCSORGTOP
350
1DF
  3
UCSORGBOTTOM
350
1E0
  3
UCSORGLEFT
350
1E1
  3
UCSORGRIGHT
350
1E2
  3
UCSORGFRONT
350
1E3
  3
UCSORGBACK
350
1E4
  0
XRECORD
  5
1E8
102
{ACAD_REACTORS
330
1E7
102
}
330
1E7
100
AcDbXrecord
340
1F
  0
XRECORD
  5
1E6
102
{ACAD_REACTORS
330
1E5
102
}
330
1E5
100
AcDbXrecord
340
1B
  0
MLINESTYLE
  5
18
102
{ACAD_REACTORS
330
17
102
}
330
17
100
AcDbMlineStyle
  2
STANDARD
 70
     0
  3

 62
   256
 51
90.0
 52
90.0
 71
     2
 49
0.5
 62
   256
  6
BYLAYER
 49
-0.5
 62
   256
  6
BYLAYER
  0
ACDBPLACEHOLDER
  5
F
102
{ACAD_REACTORS
330
E
102
}
330
E
100
AcDbPlaceHolder
280
     0
  0
DICTIONARYVAR
  5
C8
102
{ACAD_REACTORS
330
C7
102
}
330
C7
100
DictionaryVariables
280
     0
  1
96
  0
XRECORD
  5
1C6
102
{ACAD_REACTORS
330
1C5
102
}
330
1C5
100
AcDbXrecord
 90
        1
  0
XRECORD
  5
1C7
102
{ACAD_REACTORS
330
1C5
102
}
330
1C5
100
AcDbXrecord
 90
       70
  0
XRECORD
  5
1C8
102
{ACAD_REACTORS
330
1C5
102
}
330
1C5
100
AcDbXrecord
  1

  0
XRECORD
  5
1C9
102
{ACAD_REACTORS
330
1C5
102
}
330
1C5
100
AcDbXrecord
  1

  0
XRECORD
  5
1CA
102
{ACAD_REACTORS
330
1C5
102
}
330
1C5
100
AcDbXrecord
340
1A
  0
XRECORD
  5
1CB
102
{ACAD_REACTORS
330
1C5
102
}
330
1C5
100
AcDbXrecord
340
19
  0
XRECORD
  5
1CC
102
{ACAD_REACTORS
330
1C5
102
}
330
1C5
100
AcDbXrecord
340
E
  0
XRECORD
  5
1CD
102
{ACAD_REACTORS
330
1C5
102
}
330
1C5
100
AcDbXrecord
 90
    10781
  0
XRECORD
  5
1CE
102
{ACAD_REACTORS
330
1C5
102
}
330
1C5
100
AcDbXrecord
 90
        1
  0
XRECORD
  5
1CF
102
{ACAD_REACTORS
330
1C5
102
}
330
1C5
100
AcDbXrecord
 90
        0
  0
XRECORD
  5
1D0
102
{ACAD_REACTORS
330
1C5
102
}
330
1C5
100
AcDbXrecord
  1
{FDEAD576-A652-11D2-9A35-0060089B3A3F}
  0
XRECORD
  5
1D1
102
{ACAD_REACTORS
330
1C5
102
}
330
1C5
100
AcDbXrecord
  1
{BFBD6803-6A99-46B4-B974-48393FD65AFE}
  0
XRECORD
  5
1D2
102
{ACAD_REACTORS
330
1C5
102
}
330
1C5
100
AcDbXrecord
 40
0.0
  0
XRECORD
  5
1D3
102
{ACAD_REACTORS
330
1C5
102
}
330
1C5
100
AcDbXrecord
340
0
  0
XRECORD
  5
1D4
102
{ACAD_REACTORS
330
1C5
102
}
330
1C5
100
AcDbXrecord
 70
     0
  0
XRECORD
  5
1D5
102
{ACAD_REACTORS
330
1C5
102
}
330
1C5
100
AcDbXrecord
340
0
  0
XRECORD
  5
1D6
102
{ACAD_REACTORS
330
1C5
102
}
330
1C5
100
AcDbXrecord
 10
0.0
 20
0.0
 30
0.0
  0
XRECORD
  5
1D7
102
{ACAD_REACTORS
330
1C5
102
}
330
1C5
100
AcDbXrecord
 10
0.0
 20
0.0
 30
0.0
  0
XRECORD
  5
1D8
102
{ACAD_REACTORS
330
1C5
102
}
330
1C5
100
AcDbXrecord
 10
0.0
 20
0.0
 30
0.0
  0
XRECORD
  5
1D9
102
{ACAD_REACTORS
330
1C5
102
}
330
1C5
100
AcDbXrecord
 10
0.0
 20
0.0
 30
0.0
  0
XRECORD
  5
1DA
102
{ACAD_REACTORS
330
1C5
102
}
330
1C5
100
AcDbXrecord
 10
0.0
 20
0.0
 30
0.0
  0
XRECORD
  5
1DB
102
{ACAD_REACTORS
330
1C5
102
}
330
1C5
100
AcDbXrecord
 10
0.0
 20
0.0
 30
0.0
  0
XRECORD
  5
1DC
102
{ACAD_REACTORS
330
1C5
102
}
330
1C5
100
AcDbXrecord
340
0
  0
XRECORD
  5
1DD
102
{ACAD_REACTORS
330
1C5
102
}
330
1C5
100
AcDbXrecord
 70
     0
  0
XRECORD
  5
1DE
102
{ACAD_REACTORS
330
1C5
102
}
330
1C5
100
AcDbXrecord
340
0
  0
XRECORD
  5
1DF
102
{ACAD_REACTORS
330
1C5
102
}
330
1C5
100
AcDbXrecord
 10
0.0
 20
0.0
 30
0.0
  0
XRECORD
  5
1E0
102
{ACAD_REACTORS
330
1C5
102
}
330
1C5
100
AcDbXrecord
 10
0.0
 20
0.0
 30
0.0
  0
XRECORD
  5
1E1
102
{ACAD_REACTORS
330
1C5
102
}
330
1C5
100
AcDbXrecord
 10
0.0
 20
0.0
 30
0.0
  0
XRECORD
  5
1E2
102
{ACAD_REACTORS
330
1C5
102
}
330
1C5
100
AcDbXrecord
 10
0.0
 20
0.0
 30
0.0
  0
XRECORD
  5
1E3
102
{ACAD_REACTORS
330
1C5
102
}
330
1C5
100
AcDbXrecord
 10
0.0
 20
0.0
 30
0.0
  0
XRECORD
  5
1E4
102
{ACAD_REACTORS
330
1C5
102
}
330
1C5
100
AcDbXrecord
 10
0.0
 20
0.0
 30
0.0
  0
ENDSEC
  0
EOF
