измерительно-тестовый СД от Денона

80 просмотров
Перейти к первому непрочитанному сообщению

Sergey Alabushev

не прочитано,
6 окт. 2007 г., 14:03:4806.10.2007
Hello Roman!

05 Окт 07 ~09:35, Roman Efimov ─═> All:

RE> измерительно-тестовый СДиск от Денона
RE> http://rapidshare.com/files/60323123/Denon_Audio_Technical_CD.part2.ra
RE> File-Size: 49,75 MB
RE> http://rapidshare.com/files/60354502/Denon_Audio_Technical_CD.part1.ra
RE> File-Size: 95,78 MB
Интересно, какой извращенец его туда положил?
Nero, понимающая файлы cue его отвергает.
Чем его развернуть на диск?

RE> описание
RE> http://img48.imageshack.us/img48/7060/denon1zu6.jpg
Hу да, если этикетки стали описаниями...


Bye, Roman
... ────────────────────────────────────────────────── eppur si muove!

Roman Efimov

не прочитано,
6 окт. 2007 г., 14:47:4606.10.2007
Hello Sergey,

> Интересно, какой извращенец его туда положил?

я положил.

> Nero, понимающая файлы cue его отвергает.

Ты первый из тридцати скачавших, у кого проблемы.

Я спокойно прожег EACом прямо из APE.

> Чем его развернуть на диск?

ЕАС стоит?

им и жги без разворачивания.

> Hу да, если этикетки стали описаниями...

а чего ты ждал?

инструкции по использованию на русском языке?

по-моему, из куе все понятно:

REM GENRE Noise
REM DATE 1984
REM DISCID EA0E4363
REM COMMENT "ExactAudioCopy v0.95b4"
PERFORMER "Various"
TITLE "Denon Audio Technical CD"
FILE "Denon Audio Technical CD.ape" WAVE
TRACK 01 AUDIO
TITLE "Channel (L,R)"
PERFORMER "Channel (L,R)"
INDEX 01 00:00:00
TRACK 02 AUDIO
TITLE "Balance, Phase (L+R,L-R)"
PERFORMER "Balance, Phase (L+R,L-R)"
INDEX 00 00:21:25
INDEX 01 00:22:00
TRACK 03 AUDIO
TITLE "Orchestra (Stereo)"
PERFORMER "Orchestra (Stereo)"
INDEX 00 00:58:25
INDEX 01 01:00:25
TRACK 04 AUDIO
TITLE "Concerto (Stereo)"
PERFORMER "Concerto (Stereo)"
INDEX 00 02:42:25
INDEX 01 02:42:50
TRACK 05 AUDIO
TITLE "Chamber Music (Stereo)"
PERFORMER "Chamber Music (Stereo)"
INDEX 00 03:26:58
INDEX 01 03:27:40
TRACK 06 AUDIO
TITLE "Piano (Stereo)"
PERFORMER "Piano (Stereo)"
INDEX 00 04:10:63
INDEX 01 04:11:25
TRACK 07 AUDIO
TITLE "Organ (Stereo)"
PERFORMER "Organ (Stereo)"
INDEX 00 04:54:12
INDEX 01 04:54:62
TRACK 08 AUDIO
TITLE "Jazz (Stereo)"
PERFORMER "Jazz (Stereo)"
INDEX 00 05:38:74
INDEX 01 05:39:25
TRACK 09 AUDIO
TITLE "Rock (Stereo)"
PERFORMER "Rock (Stereo)"
INDEX 00 06:27:23
INDEX 01 06:28:12
TRACK 10 AUDIO
TITLE "Announcement English (Stereo)"
PERFORMER "Announcement English (Stereo)"
INDEX 00 07:11:74
INDEX 01 07:13:25
TRACK 11 AUDIO
TITLE "Announcement Japanese (Stereo)"
PERFORMER "Announcement Japanese (Stereo)"
INDEX 00 09:00:63
INDEX 01 09:02:00
TRACK 12 AUDIO
TITLE "1001Hz Sine Wave (-15dB L,R)"
PERFORMER "1001Hz Sine Wave (-15dB L,R)"
INDEX 00 09:45:00
INDEX 01 09:48:50
TRACK 13 AUDIO
TITLE "1001Hz Sine Wave (-15dB Ref L+R)"
PERFORMER "1001Hz Sine Wave (-15dB Ref L+R)"
INDEX 00 10:17:63
INDEX 01 10:18:50
TRACK 14 AUDIO
TITLE "1001Hz Sine Wave (-16dB Ref L+R)"
PERFORMER "1001Hz Sine Wave (-16dB Ref L+R)"
INDEX 00 10:47:63
INDEX 01 10:48:52
TRACK 15 AUDIO
TITLE "1001Hz Sine Wave (-18dB Ref L+R)"
PERFORMER "1001Hz Sine Wave (-18dB Ref L+R)"
INDEX 00 11:17:61
INDEX 01 11:18:37
TRACK 16 AUDIO
TITLE "1001Hz Sine Wave (-20dB Ref L+R)"
PERFORMER "1001Hz Sine Wave (-20dB Ref L+R)"
INDEX 00 11:47:70
INDEX 01 11:48:62
TRACK 17 AUDIO
TITLE "1001Hz Sine Wave (-15dB L-R)"
PERFORMER "1001Hz Sine Wave (-15dB L-R)"
INDEX 00 12:17:69
INDEX 01 12:18:70
TRACK 18 AUDIO
TITLE "1001Hz Sine Wave (0dB L)"
PERFORMER "1001Hz Sine Wave (0dB L)"
INDEX 00 12:47:74
INDEX 01 12:48:70
TRACK 19 AUDIO
TITLE "1001Hz Sine Wave (0dB R)"
PERFORMER "1001Hz Sine Wave (0dB R)"
INDEX 00 13:17:63
INDEX 01 13:18:72
TRACK 20 AUDIO
TITLE "9999Hz Sine Wave (0dB L)"
PERFORMER "9999Hz Sine Wave (0dB L)"
INDEX 00 13:48:02
INDEX 01 13:48:62
TRACK 21 AUDIO
TITLE "9999Hz Sine Wave (0dB R)"
PERFORMER "9999Hz Sine Wave (0dB R)"
INDEX 00 14:17:63
INDEX 01 14:18:62
TRACK 22 AUDIO
TITLE "100Hz Sine Wave (0dB L)"
PERFORMER "100Hz Sine Wave (0dB L)"
INDEX 00 14:47:67
INDEX 01 14:48:62
TRACK 23 AUDIO
TITLE "100Hz Sine Wave (0dB R)"
PERFORMER "100Hz Sine Wave (0dB R)"
INDEX 00 15:17:66
INDEX 01 15:18:62
TRACK 24 AUDIO
TITLE "19999Hz Sine Wave (0dB L)"
PERFORMER "19999Hz Sine Wave (0dB L)"
INDEX 00 15:47:67
INDEX 01 15:48:62
TRACK 25 AUDIO
TITLE "19999Hz Sine Wave (0dB R)"
PERFORMER "19999Hz Sine Wave (0dB R)"
INDEX 00 16:17:63
INDEX 01 16:18:62
TRACK 26 AUDIO
TITLE "21.5Hz Sine Wave (0dB L)"
PERFORMER "21.5Hz Sine Wave (0dB L)"
INDEX 00 16:47:71
INDEX 01 16:48:62
TRACK 27 AUDIO
TITLE "21.5Hz Sine Wave (0dB R)"
PERFORMER "21.5Hz Sine Wave (0dB R)"
INDEX 00 17:17:69
INDEX 01 17:18:65
TRACK 28 AUDIO
TITLE "1001Hz Sine Wave (0dB L + Emph)"
PERFORMER "1001Hz Sine Wave (0dB L + Emph)"
INDEX 00 17:47:72
INDEX 01 17:48:62
TRACK 29 AUDIO
TITLE "1001Hz Sine Wave (0dB R + Emph)"
PERFORMER "1001Hz Sine Wave (0dB R + Emph)"
INDEX 00 18:17:72
INDEX 01 18:18:67
TRACK 30 AUDIO
TITLE "1001Hz Sine Wave (-24dB L)"
PERFORMER "1001Hz Sine Wave (-24dB L)"
INDEX 00 18:47:74
INDEX 01 18:48:70
TRACK 31 AUDIO
TITLE "1001Hz Sine Wave (-24dB R)"
PERFORMER "1001Hz Sine Wave (-24dB R)"
INDEX 00 19:17:74
INDEX 01 19:18:70
TRACK 32 AUDIO
TITLE "1001Hz Sine Wave (-60dB L)"
PERFORMER "1001Hz Sine Wave (-60dB L)"
INDEX 00 19:47:74
INDEX 01 19:48:72
TRACK 33 AUDIO
TITLE "1001Hz Sine Wave (-60dB R)"
PERFORMER "1001Hz Sine Wave (-60dB R)"
INDEX 00 20:18:00
INDEX 01 20:18:72
TRACK 34 AUDIO
TITLE "Infinity Zero (L+R)"
PERFORMER "Infinity Zero (L+R)"
INDEX 00 20:48:02
INDEX 01 20:48:25
TRACK 35 AUDIO
TITLE "Infinity Zero (L+R + Emph)"
PERFORMER "Infinity Zero (L+R + Emph)"
INDEX 00 22:48:24
INDEX 01 22:49:00
TRACK 36 AUDIO
TITLE "1KHz, 20Hz-20KHz (-20dB L)"
PERFORMER "1KHz, 20Hz-20KHz (-20dB L)"
INDEX 00 23:18:74
INDEX 01 23:19:15
TRACK 37 AUDIO
TITLE "1KHz, 20Hz-20KHz (-20dB R)"
PERFORMER "1KHz, 20Hz-20KHz (-20dB R)"
INDEX 00 24:15:22
INDEX 01 24:16:22
TRACK 38 AUDIO
TITLE "1KHz, 20Hz-20KHz (-20dB L + Emph)"
PERFORMER "1KHz, 20Hz-20KHz (-20dB L + Emph)"
INDEX 00 25:12:44
INDEX 01 25:13:45
TRACK 39 AUDIO
TITLE "1KHz, 20Hz-20KHz (-20dB R + Emph)"
PERFORMER "1KHz, 20Hz-20KHz (-20dB R + Emph)"
INDEX 00 26:09:51
INDEX 01 26:10:52
TRACK 40 AUDIO
TITLE "250Hz+8020Hz (0dB L)"
PERFORMER "250Hz+8020Hz (0dB L)"
INDEX 00 27:06:69
INDEX 01 27:07:70
TRACK 41 AUDIO
TITLE "250Hz+8020Hz (0dB R)"
PERFORMER "250Hz+8020Hz (0dB R)"
INDEX 00 27:37:05
INDEX 01 27:37:72
TRACK 42 AUDIO
TITLE "250Hz+8020Hz (-10dB L+R)"
PERFORMER "250Hz+8020Hz (-10dB L+R)"
INDEX 00 28:07:05
INDEX 01 28:08:22
TRACK 43 AUDIO
TITLE "11KHz+12KHz (0dB L)"
PERFORMER "11KHz+12KHz (0dB L)"
INDEX 00 28:37:07
INDEX 01 28:38:02
TRACK 44 AUDIO
TITLE "11KHz+12KHz (0dB R)"
PERFORMER "11KHz+12KHz (0dB R)"
INDEX 00 29:07:10
INDEX 01 29:08:05
TRACK 45 AUDIO
TITLE "11KHz+12KHz (-10dB L+R)"
PERFORMER "11KHz+12KHz (-10dB L+R)"
INDEX 00 29:37:12
INDEX 01 29:38:07
TRACK 46 AUDIO
TITLE "40Hz Sine Wave (0dB L+R)"
PERFORMER "40Hz Sine Wave (0dB L+R)"
INDEX 00 30:07:12
INDEX 01 30:08:17
TRACK 47 AUDIO
TITLE "100Hz Sine Wave (0dB L+R)"
PERFORMER "100Hz Sine Wave (0dB L+R)"
INDEX 00 30:37:22
INDEX 01 30:38:17
TRACK 48 AUDIO
TITLE "315Hz Sine Wave (0dB L+R)"
PERFORMER "315Hz Sine Wave (0dB L+R)"
INDEX 00 31:07:24
INDEX 01 31:08:20
TRACK 49 AUDIO
TITLE "1001Hz Sine Wave (0dB L+R)"
PERFORMER "1001Hz Sine Wave (0dB L+R)"
INDEX 00 31:37:25
INDEX 01 31:38:20
TRACK 50 AUDIO
TITLE "3149Hz Sine Wave (0dB L+R)"
PERFORMER "3149Hz Sine Wave (0dB L+R)"
INDEX 00 32:07:26
INDEX 01 32:08:22
TRACK 51 AUDIO
TITLE "6301Hz Sine Wave (0dB L+R)"
PERFORMER "6301Hz Sine Wave (0dB L+R)"
INDEX 00 32:37:26
INDEX 01 32:38:22
TRACK 52 AUDIO
TITLE "9999Hz Sine Wave (0dB L+R)"
PERFORMER "9999Hz Sine Wave (0dB L+R)"
INDEX 00 33:07:29
INDEX 01 33:08:25
TRACK 53 AUDIO
TITLE "15999Hz Sine Wave (0dB L+R)"
PERFORMER "15999Hz Sine Wave (0dB L+R)"
INDEX 00 33:37:38
INDEX 01 33:38:37
TRACK 54 AUDIO
TITLE "17999Hz Sine Wave (0dB L+R)"
PERFORMER "17999Hz Sine Wave (0dB L+R)"
INDEX 00 34:07:32
INDEX 01 34:08:25
TRACK 55 AUDIO
TITLE "19999Hz Sine Wave (0dB L+R)"
PERFORMER "19999Hz Sine Wave (0dB L+R)"
INDEX 00 34:37:34
INDEX 01 34:38:27
TRACK 56 AUDIO
TITLE "100Hz Sine Wave (-20dB L+R)"
PERFORMER "100Hz Sine Wave (-20dB L+R)"
INDEX 00 35:07:36
INDEX 01 35:08:30
TRACK 57 AUDIO
TITLE "1001Hz Sine Wave (-20dB L+R)"
PERFORMER "1001Hz Sine Wave (-20dB L+R)"
INDEX 00 35:37:35
INDEX 01 35:38:32
TRACK 58 AUDIO
TITLE "9999Hz Sine Wave (-20dB L+R)"
PERFORMER "9999Hz Sine Wave (-20dB L+R)"
INDEX 00 36:07:37
INDEX 01 36:08:32
TRACK 59 AUDIO
TITLE "100Hz Sine Wave (-40dB L+R)"
PERFORMER "100Hz Sine Wave (-40dB L+R)"
INDEX 00 36:37:36
INDEX 01 36:38:35
TRACK 60 AUDIO
TITLE "1001Hz Sine Wave (-40dB L+R)"
PERFORMER "1001Hz Sine Wave (-40dB L+R)"
INDEX 00 37:07:36
INDEX 01 37:08:35
TRACK 61 AUDIO
TITLE "9999Hz Sine Wave (-40dB L+R)"
PERFORMER "9999Hz Sine Wave (-40dB L+R)"
INDEX 00 37:37:36
INDEX 01 37:38:35
TRACK 62 AUDIO
TITLE "100Hz Sine Wave (-60dB L+R)"
PERFORMER "100Hz Sine Wave (-60dB L+R)"
INDEX 00 38:07:37
INDEX 01 38:08:37
TRACK 63 AUDIO
TITLE "1001Hz Sine Wave (-60dB L+R)"
PERFORMER "1001Hz Sine Wave (-60dB L+R)"
INDEX 00 38:37:41
INDEX 01 38:38:40
TRACK 64 AUDIO
TITLE "9999Hz Sine Wave (-60dB L+R)"
PERFORMER "9999Hz Sine Wave (-60dB L+R)"
INDEX 00 39:07:43
INDEX 01 39:08:40
TRACK 65 AUDIO
TITLE "1KHz,5Hz-22.05KHz (-15dB L+R)"
PERFORMER "1KHz,5Hz-22.05KHz (-15dB L+R)"
INDEX 00 39:37:45
INDEX 01 39:41:47
TRACK 66 AUDIO
TITLE "1001Hz,-20dB, -60dB-0dB (L+R)"
PERFORMER "1001Hz,-20dB, -60dB-0dB (L+R)"
INDEX 00 40:51:13
INDEX 01 40:52:12
TRACK 67 AUDIO
TITLE "100Hz, -20dB, -60dB-0dB (L+R)"
PERFORMER "100Hz, -20dB, -60dB-0dB (L+R)"
INDEX 00 41:33:39
INDEX 01 41:34:40
TRACK 68 AUDIO
TITLE "9999Hz, -20dB, -60dB-0dB (L+R)"
PERFORMER "9999Hz, -20dB, -60dB-0dB (L+R)"
INDEX 00 42:15:74
INDEX 01 42:17:00
TRACK 69 AUDIO
TITLE "401Hz, 0', 0'-360' (0dB)"
PERFORMER "401Hz, 0', 0'-360' (0dB)"
INDEX 00 42:58:52
INDEX 01 42:59:52
TRACK 70 AUDIO
TITLE "401Hz, 0', 0'-360' (-20dB)"
PERFORMER "401Hz, 0', 0'-360' (-20dB)"
INDEX 00 43:41:14
INDEX 01 43:42:05
TRACK 71 AUDIO
TITLE "100Hz Square Wave (-10dB L+R)"
PERFORMER "100Hz Square Wave (-10dB L+R)"
INDEX 00 44:23:41
INDEX 01 44:24:62
TRACK 72 AUDIO
TITLE "1001Hz Tone Burst EIA (0dB L+R)"
PERFORMER "1001Hz Tone Burst EIA (0dB L+R)"
INDEX 00 44:55:21
INDEX 01 44:56:22
TRACK 73 AUDIO
TITLE "1001Hz Tone Burst EIAJ (0dB L+R)"
PERFORMER "1001Hz Tone Burst EIAJ (0dB L+R)"
INDEX 00 45:25:23
INDEX 01 45:26:42
TRACK 74 AUDIO
TITLE "401Hz Tone Burst (0dB L+R)"
PERFORMER "401Hz Tone Burst (0dB L+R)"
INDEX 00 45:55:48
INDEX 01 45:56:55
TRACK 75 AUDIO
TITLE "4000Hz Tone Burst (0dB L+R)"
PERFORMER "4000Hz Tone Burst (0dB L+R)"
INDEX 00 46:25:66
INDEX 01 46:26:67
TRACK 76 AUDIO
TITLE "Impulse I (0dB L+R)"
PERFORMER "Impulse I (0dB L+R)"
INDEX 00 46:57:11
INDEX 01 46:57:62
TRACK 77 AUDIO
TITLE "Impulse II (0dB L+R)"
PERFORMER "Impulse II (0dB L+R)"
INDEX 00 47:25:00
INDEX 01 47:26:25
TRACK 78 AUDIO
TITLE "40 ms Pulsive Signal (0dB L+R)"
PERFORMER "40 ms Pulsive Signal (0dB L+R)"
INDEX 00 48:00:24
INDEX 01 48:01:25
TRACK 79 AUDIO
TITLE "White Noise (0dB L+R)"
PERFORMER "White Noise (0dB L+R)"
INDEX 00 48:31:24
INDEX 01 48:32:25
TRACK 80 AUDIO
TITLE "25Hz,31.5Hz,40Hz (-20dB L -16dB R)"
PERFORMER "25Hz,31.5Hz,40Hz (-20dB L -16dB R)"
INDEX 00 50:33:69
INDEX 01 50:38:25
TRACK 81 AUDIO
TITLE "50Hz, 63Hz, 80Hz (-20dB L -16dB R)"
PERFORMER "50Hz, 63Hz, 80Hz (-20dB L -16dB R)"
INDEX 01 50:57:02
TRACK 82 AUDIO
TITLE "100Hz, 125Hz, 160Hz (-20dB L -16dB R)"
PERFORMER "100Hz, 125Hz, 160Hz (-20dB L -16dB R)"
INDEX 01 51:12:00
TRACK 83 AUDIO
TITLE "200Hz, 250Hz, 315Hz (-20dB L -16dB R)"
PERFORMER "200Hz, 250Hz, 315Hz (-20dB L -16dB R)"
INDEX 01 51:27:00
TRACK 84 AUDIO
TITLE "400Hz, 500Hz, 630Hz (-20dB L -16dB R)"
PERFORMER "400Hz, 500Hz, 630Hz (-20dB L -16dB R)"
INDEX 00 51:41:63
INDEX 01 51:41:67
TRACK 85 AUDIO
TITLE "800Hz, 1KHz, 1.25KHz (-20dB L -16dB R)"
PERFORMER "800Hz, 1KHz, 1.25KHz (-20dB L -16dB R)"
INDEX 01 51:56:67
TRACK 86 AUDIO
TITLE "1.6KHz, 2KHz, 2.5KHz (-20dB L -16dB R)"
PERFORMER "1.6KHz, 2KHz, 2.5KHz (-20dB L -16dB R)"
INDEX 01 52:11:67
TRACK 87 AUDIO
TITLE "3.15KHz, 4KHz, 5KHz (-20dB L -16dB R)"
PERFORMER "3.15KHz, 4KHz, 5KHz (-20dB L -16dB R)"
INDEX 01 52:26:67
TRACK 88 AUDIO
TITLE "6.3KHz, 8KHz, 10KHz (-20dB L -16dB R)"
PERFORMER "6.3KHz, 8KHz, 10KHz (-20dB L -16dB R)"
INDEX 01 52:41:67
TRACK 89 AUDIO
TITLE "12.5KHz, 16KHz (-20dB L -16dB R)"
PERFORMER "12.5KHz, 16KHz (-20dB L -16dB R)"
INDEX 00 52:56:56
INDEX 01 52:56:57
TRACK 90 AUDIO
TITLE "Pink Noise (-14dB L+R)"
PERFORMER "Pink Noise (-14dB L+R)"
INDEX 00 53:11:58
INDEX 01 53:26:72
TRACK 91 AUDIO
TITLE "3150Hz Sine Wave (-20dB L+R)"
PERFORMER "3150Hz Sine Wave (-20dB L+R)"
INDEX 00 53:53:11
INDEX 01 53:56:12
TRACK 92 AUDIO
TITLE "0000 22.05KHz (ILSB L+R)"
PERFORMER "FFFF"
INDEX 00 54:25:23
INDEX 01 54:26:25
TRACK 93 AUDIO
TITLE "Orchestra, Piano (-60dB Stereo)"
PERFORMER "Orchestra, Piano (-60dB Stereo)"
INDEX 00 54:57:11
INDEX 01 54:58:30
TRACK 94 AUDIO
TITLE "Orchestra, Piano (-40dB Stereo)"
PERFORMER "Orchestra, Piano (-40dB Stereo)"
INDEX 00 55:35:04
INDEX 01 55:35:05
TRACK 95 AUDIO
TITLE "Orchestra, Piano (-20dB Stereo)"
PERFORMER "Orchestra, Piano (-20dB Stereo)"
INDEX 00 56:11:74
INDEX 01 56:12:00
TRACK 96 AUDIO
TITLE "Orchestra, Piano (Normal Stereo)"
PERFORMER "Orchestra, Piano (Normal Stereo)"
INDEX 00 56:48:18
INDEX 01 56:48:67
TRACK 97 AUDIO
TITLE "Music I x4 (Normal Stereo)"
PERFORMER "Music I x4 (Normal Stereo)"
INDEX 00 57:25:25
INDEX 01 57:30:12
TRACK 98 AUDIO
TITLE "Music II x4 (Normal Stereo)"
PERFORMER "Music II x4 (Normal Stereo)"
INDEX 00 58:32:67
INDEX 01 58:34:00
TRACK 99 AUDIO
TITLE "Music III x4 (Normal Stereo)"
PERFORMER "Music III x4 (Normal Stereo)"
INDEX 00 59:50:23
INDEX 01 59:51:47

Alexander Torres

не прочитано,
6 окт. 2007 г., 16:17:0006.10.2007
Hello, Sergey!
You wrote to Roman Efimov on Sat, 06 Oct 2007 22:03:48 +0400:

SA> Hello Roman!

SA> 05 Окт 07 ~09:35, Roman Efimov ─═> All:

RE>> измерительно-тестовый СДиск от Денона
RE>> http://rapidshare.com/files/60323123/Denon_Audio_Technical_CD.part2.ra
RE>> File-Size: 49,75 MB
RE>> http://rapidshare.com/files/60354502/Denon_Audio_Technical_CD.part1.ra
RE>> File-Size: 95,78 MB

SA> Интересно, какой извращенец его туда положил?
SA> Nero, понимающая файлы cue его отвергает.
SA> Чем его развернуть на диск?

Сколько уже народу наступали на эти грабли.....

В кууе наверно ссылка на вав, а там лежит аре. Ты его или в вавку
перекрути, или Hере плагин от Обезьяны поставь, чтобы она на ходу могла.
Я обычно не рискую "налету" писать, сначала перекручиваю, потом пишу.

With best regards, Alexander Torres. 2:461/28, E-mail: alto...@yahoo.com
[а ночью мы снова, уйдем эскадроном..]

http://altor.sytes.net mirror: http://one.fsphost.com/altor/


Sergey Alabushev

не прочитано,
6 окт. 2007 г., 23:21:0606.10.2007
Hello Alexander!

07 Окт 07 ~00:17, Alexander Torres ─═> Sergey Alabushev:

AT> В кууе наверно ссылка на вав, а там лежит аре. Ты его или в вавку
AT> перекрути, или Hере плагин от Обезьяны поставь, чтобы она на ходу
AT> могла. Я обычно не рискую "налету" писать, сначала перекручиваю, потом
AT> пишу.

Спасибо, понял.

Bye, Alexander
... ─────────────────────────────────────────── homo homini lupus est!

Sergey Alabushev

не прочитано,
6 окт. 2007 г., 23:18:1606.10.2007
Hello Roman!

06 Окт 07 ~22:47, Roman Efimov ─═> Sergey Alabushev:

RE> ЕАС стоит?
RE> им и жги без разворачивания.

Понял, ты уж не серчай за резкий тон..

Alex Vorobiev

не прочитано,
14 окт. 2007 г., 13:51:5714.10.2007
Fri Oct 05 2007 09:35, Roman Efimov wrote to All:
RE> From: Roman Efimov <ro...@farlep.net>

RE> измерительно-тестовый СДиск от Денона

RE> хттп://рапидшаре.ком/филес/60323123/Denon_Audio_Technical_CD.part2.rar
RE> File-Size: 49,75 MB
RE> хттп://рапидшаре.ком/филес/60354502/Denon_Audio_Technical_CD.part1.rar
RE> File-Size: 95,78 MB

Роман, спасибо! Скачал, но смогу заняться им чуть позже, когда освобожусь.

С уважением, Александр

Vitaly Sokolov

не прочитано,
20 окт. 2007 г., 00:09:1220.10.2007
Have you lived yet, Alexander?

RE>>> измерительно-тестовый СДиск от Денона

AT> В кууе наверно ссылка на вав, а там лежит аре. Ты его или в вавку
AT> перекрути, или Hере плагин от Обезьяны поставь, чтобы она на ходу могла.
AT> Я обычно не рискую "налету" писать, сначала перекручиваю, потом пишу.
А как сделать, чтобы на CD названия всех треков прописались? А то у меня после
записи Hерой получается Tiile01, Title02 и тд.

Be waiting for, Alexander!

[Team Burzum][Team Moonspell][Team Bass] _[Swing-Of-Pendulum]_
[Team NightSky][Team Stars][Team Roof] /[Black Team]/

Alexander Torres

не прочитано,
20 окт. 2007 г., 04:14:1820.10.2007
Hello, Vitaly!
You wrote to Alexander Torres on Sat, 20 Oct 2007 08:09:12 +0400:

VS> Have you lived yet, Alexander?

RE>>>> измерительно-тестовый СДиск от Денона

AT>> В кууе наверно ссылка на вав, а там лежит аре. Ты его или в вавку
AT>> перекрути, или Hере плагин от Обезьяны поставь, чтобы она на ходу

AT>> могла. Я обычно не рискую "налету" писать, сначала перекручиваю, потом
AT>> пишу.
VS> А как сделать, чтобы на CD названия всех треков прописались?

Включить CD-Text, если он выключен.

VS> А то у меня после записи Hерой получается Tiile01, Title02 и тд.

А как ты это смотришь?
Если названия треков прописаны в куе, и включена запись CD-Text - оно
пропишется.

Конкретно в этом диске проверить не могу - у меня нет ни одного плеера,
поддерживающего CD-Text..

Sergey Alabushev

не прочитано,
20 окт. 2007 г., 06:02:4220.10.2007
Hello Vitaly!

20 Окт 07 ~09:09, Vitaly Sokolov ─═> Alexander Torres:

AT>> В кууе наверно ссылка на вав, а там лежит аре. Ты его или в

AT>> вавку перекрути, или Hере плагин от Обезьяны поставь, чтобы она
AT>> на ходу могла. Я обычно не рискую "налету" писать, сначала
AT>> перекручиваю, потом пишу.
VS> А как сделать, чтобы на CD названия всех треков прописались? А то у
VS> меня после записи Hерой получается Tiile01, Title02 и тд.

Вопрос второстепенный, имхо никак, так как сд-текст содержит формат
исполнитель/комент/etc..
Фактически, весь комент альбома прописывается как в мп3 файл,
и дать имена трекам ты не сможешь - на то проблемы аппаратной
совместимости бытовых плееров.

Bye, Vitaly
... ─────────────────────────────────────── si vis pacem, para bellum!

Alexey Roschin

не прочитано,
20 окт. 2007 г., 04:33:5420.10.2007
Sat Oct 20 2007 12:14, Alexander Torres wrote to Vitaly Sokolov:

AT> Конкретно в этом диске проверить не могу - у меня нет ни одного плеера,
AT> поддерживающего CD-Text..

В автомагнитоле. Или ЕАС попросить прочитать CD-text.

Кстати, есть такие стационарники, которые на своем дисплейчике показывают
бегущей строкой CD-text? Я нашел только аппараты ДВД, которые на телек выводят
названия треков (нафиг оно нужно). Была даже мысль переделать автомагнитолу в
стационарный плеер.

Рощин (alroschin "собака" yandex ru )

Alexander Torres

не прочитано,
20 окт. 2007 г., 08:54:2820.10.2007
Hello, Alexey!
You wrote to Alexander Torres on Sat, 20 Oct 2007 12:33:54 +0400:

AR> Sat Oct 20 2007 12:14, Alexander Torres wrote to Vitaly Sokolov:

AT>> Конкретно в этом диске проверить не могу - у меня нет ни одного

AT>> плеера, поддерживающего CD-Text..

AR> В автомагнитоле.

Моя не показывает. Hа мр3 - показывает, а на АудиоЦД - нет.
Видимо, не дописали пару строчек в фирмваре :(

AR> Или ЕАС попросить прочитать CD-text.
AR> Кстати, есть такие стационарники, которые на своем дисплейчике
AR> показывают бегущей строкой CD-text? Я нашел только аппараты ДВД,
AR> которые на телек выводят названия треков (нафиг оно нужно). Была даже
AR> мысль переделать автомагнитолу в стационарный плеер.

Лет 10+ назад попадалась какая-то Сонька, та показывала.
Hа ДВДшниках не пробовал.

Vitaly Sokolov

не прочитано,
21 окт. 2007 г., 14:24:1721.10.2007
Have you lived yet, Sergey?

VS>> А как сделать, чтобы на CD названия всех треков прописались? А то у
VS>> меня после записи Hерой получается Tiile01, Title02 и тд.

SA> Вопрос второстепенный, имхо никак, так как сд-текст содержит формат
SA> исполнитель/комент/etc..
SA> Фактически, весь комент альбома прописывается как в мп3 файл,
SA> и дать имена трекам ты не сможешь - на то проблемы аппаратной
SA> совместимости бытовых плееров.
Ок, буду иметь в виду.
Сенкс.

Be waiting for, Sergey!

Vitaly Sokolov

не прочитано,
21 окт. 2007 г., 14:18:3921.10.2007
Have you lived yet, Alexander?

RE>>>>> измерительно-тестовый СДиск от Денона

VS>> А как сделать, чтобы на CD названия всех треков прописались?
AT> Включить CD-Text, если он выключен.
Когда Hерой куе открываешь, то функция CD-Text недоступна.

VS>> А то у меня после записи Hерой получается Tiile01, Title02 и тд.

AT> А как ты это смотришь?
Пробовал полученный диск крутить на быт. плеере, в винампе и CD-ex.

AT> Если названия треков прописаны в куе, и включена запись CD-Text - оно
AT> пропишется.

AT> Конкретно в этом диске проверить не могу - у меня нет ни одного плеера,
AT> поддерживающего CD-Text..
Спасибо за ответ.

Be waiting for, Alexander!

Alex Vorobiev

не прочитано,
23 окт. 2007 г., 11:30:4723.10.2007
*

С уважением, Александр

Ответить всем
Написать сообщение автору
Переслать
0 новых сообщений